Bill.and.Ted.Face.the.Music.2020.1080p.WEBRip.DD5.1.x264-CM

seeders: 2717
leechers: 306
updated:
Added by prudence25 in Movies > HD

Download Fast Safe Anonymous
movies, software, shows...
Summary:

Yet to fulfill their rock and roll destiny, the now middle aged best friends Bill and Ted set out on a new adventure when a visitor from the future warns them that only their song can save life as we know it. Along the way, they will be helped by their daughters, a new batch of historical figures, and a few music legends — to seek the song that will set their world right and bring harmony in the universe.

Files

Bill.and.Ted.Face.the.Music.2020.1080p.WEBRip.DD5.1.x264-CM
  • Bill.and.Ted.Face.the.Music.2020.1080p.WEBRip.DD5.1.x264-CM.mkv (3.4 GB)
  • RARBG.txt (0.0 KB)

Description

Video
ID : 1
Format : AVC
Format/Info : Advanced Video Codec
Format profile : [email protected]
Format settings : CABAC / 2 Ref Frames
Format settings, CABAC : Yes
Format settings, Reference frames : 2 frames
Codec ID : V_MPEG4/ISO/AVC
Duration : 1 h 31 min
Bit rate : 4 962 kb/s
Width : 1 920 pixels
Height : 1 080 pixels
Display aspect ratio : 16:9
Frame rate mode : Constant
Frame rate : 23.976 (24000/1001) FPS
Color space : YUV
Chroma subsampling : 4:2:0
Bit depth : 8 bits
Scan type : Progressive
Bits/(Pixel*Frame) : 0.100
Stream size : 3.19 GiB (93%)
Writing library : x264 core 155 r2901 7d0ff22
Language : English
Default : Yes
Forced : No
Color range : Limited
Color primaries : BT.709
Transfer characteristics : BT.709
Matrix coefficients : BT.709

Audio
ID : 2
Format : AC-3
Format/Info : Audio Coding 3
Commercial name : Dolby Digital
Codec ID : A_AC3
Duration : 1 h 31 min
Bit rate mode : Constant
Bit rate : 384 kb/s
Channel(s) : 6 channels
Channel layout : L R C LFE Ls Rs
Sampling rate : 48.0 kHz
Frame rate : 31.250 FPS (1536 SPF)
Compression mode : Lossy
Stream size : 252 MiB (7%)
Language : English
Service kind : Complete Main
Default : Yes
Forced : No

Text
ID : 3
Format : UTF-8
Codec ID : S_TEXT/UTF8
Codec ID/Info : UTF-8 Plain Text
Duration : 1 h 31 min
Bit rate : 61 b/s
Count of elements : 1583
Stream size : 40.7 KiB (0%)
Language : English
Default : Yes
Forced : No

Related Torrents

torrent name size uploader age seed leech
1.4 GB prudence25 24
days
1439 203
5.6 GB prudence25 24
days
910 108
1.8 GB prudence25 24
days
618 68
2.3 GB ztorrenter 25
days
421 111
796.7 MB mazemaze16 20
days
339 120


Download torrent
3.4 GB
seeders:2717
leechers:306
Bill.and.Ted.Face.the.Music.2020.1080p.WEBRip.DD5.1.x264-CM


Trackers

tracker name
http://tracker.trackerfix.com:80/announce
udp://9.rarbg.me:2970/announce
udp://9.rarbg.to:2740/announce
µTorrent compatible trackers list

Download torrent
3.4 GB
seeders:2717
leechers:306
Bill.and.Ted.Face.the.Music.2020.1080p.WEBRip.DD5.1.x264-CM


Torrent hash: 009773C74964C64D96802EA8B0CD0D3E8F6082BE