Hard.Kill.2020.1080p.WEBRip.DD5.1.x264-CM

seeders: 1381
leechers: 148
updated:
Added by prudence25 in Movies > HD

Download Fast Safe Anonymous
movies, software, shows...

Files

Hard.Kill.2020.1080p.WEBRip.DD5.1.x264-CM
  • Hard.Kill.2020.1080p.WEBRip.DD5.1.x264-CM.mkv (2.9 GB)
  • RARBG.txt (0.0 KB)

Description

Code:

Video
ID : 1
Format : AVC
Format/Info : Advanced Video Codec
Format profile : [email protected]
Format settings : CABAC / 2 Ref Frames
Format settings, CABAC : Yes
Format settings, Reference frames : 2 frames
Codec ID : V_MPEG4/ISO/AVC
Duration : 1 h 38 min
Bit rate : 3 801 kb/s
Width : 1 920 pixels
Height : 1 080 pixels
Display aspect ratio : 16:9
Frame rate mode : Constant
Frame rate : 23.976 (24000/1001) FPS
Color space : YUV
Chroma subsampling : 4:2:0
Bit depth : 8 bits
Scan type : Progressive
Bits/(Pixel*Frame) : 0.076
Stream size : 2.61 GiB (91%)
Writing library : x264 core 155 r2901 7d0ff22
Language : English
Default : Yes
Forced : No
Color range : Limited
Color primaries : BT.709
Transfer characteristics : BT.709
Matrix coefficients : BT.709

Audio
ID : 2
Format : AC-3
Format/Info : Audio Coding 3
Commercial name : Dolby Digital
Codec ID : A_AC3
Duration : 1 h 38 min
Bit rate mode : Constant
Bit rate : 384 kb/s
Channel(s) : 6 channels
Channel layout : L R C LFE Ls Rs
Sampling rate : 48.0 kHz
Frame rate : 31.250 FPS (1536 SPF)
Compression mode : Lossy
Stream size : 270 MiB (9%)
Language : English
Service kind : Complete Main
Default : Yes
Forced : No

Text
ID : 3
Format : UTF-8
Codec ID : S_TEXT/UTF8
Codec ID/Info : UTF-8 Plain Text
Duration : 1 h 30 min
Bit rate : 40 b/s
Count of elements : 1009
Stream size : 26.6 KiB (0%)
Language : English
Default : Yes
Forced : No



Download torrent
2.9 GB
seeders:1381
leechers:148
Hard.Kill.2020.1080p.WEBRip.DD5.1.x264-CM


Trackers

tracker name
http://tracker.trackerfix.com:80/announce
udp://9.rarbg.me:2810/announce
udp://9.rarbg.to:2850/announce
µTorrent compatible trackers list

Download torrent
2.9 GB
seeders:1381
leechers:148
Hard.Kill.2020.1080p.WEBRip.DD5.1.x264-CM


Torrent hash: 9C5B54F0D757D69596D9F5422CB4B63CB40279EA