Last.Week.Tonight.with.John.Oliver.S07E23.August.30.2020.720p.HMAX.WEBRip.DD2.0.x264-monkee

seeders: 808
leechers: 62
updated:
Added by prudence25 in TV > HD

Download Fast Safe Anonymous
movies, software, shows...

Files

Last.Week.Tonight.with.John.Oliver.S07E23.August.30.2020.720p.HMAX.WEBRip.DD2.0.x264-monkee[rarbg]
  • Last.Week.Tonight.with.John.Oliver.S07E23.August.30.2020.720p.HMAX.WEB-DL.DD2.0.H.264-monkee.mkv (1.0 GB)
  • RARBG.txt (0.0 KB)
  • RARBG_DO_NOT_MIRROR.exe (0.1 KB)

Description

Video
ID : 1
Format : AVC
Format/Info : Advanced Video Codec
Format profile : [email protected]
Format settings : CABAC / 4 Ref Frames
Format settings, CABAC : Yes
Format settings, Reference frames : 4 frames
Codec ID : V_MPEG4/ISO/AVC
Duration : 29 min 37 s
Bit rate mode : Variable
Bit rate : 4 613 kb/s
Maximum bit rate : 5 100 kb/s
Width : 1 280 pixels
Height : 720 pixels
Display aspect ratio : 16:9
Frame rate mode : Constant
Frame rate : 29.970 (29970/1000) FPS
Original frame rate : 29.970 (30000/1001) FPS
Color space : YUV
Chroma subsampling : 4:2:0
Bit depth : 8 bits
Scan type : Progressive
Bits/(Pixel*Frame) : 0.167
Stream size : 977 MiB (92%)
Default : Yes
Forced : No

Audio
ID : 2
Format : AC-3
Format/Info : Audio Coding 3
Commercial name : Dolby Digital
Codec ID : A_AC3
Duration : 29 min 37 s
Bit rate mode : Constant
Bit rate : 384 kb/s
Channel(s) : 2 channels
Channel layout : L R
Sampling rate : 48.0 kHz
Frame rate : 31.250 FPS (1536 SPF)
Compression mode : Lossy
Stream size : 81.4 MiB (8%)
Language : English
Service kind : Complete Main
Default : Yes
Forced : No

Text
ID : 3
Format : UTF-8
Codec ID : S_TEXT/UTF8
Codec ID/Info : UTF-8 Plain Text
Duration : 29 min 18 s
Bit rate : 128 b/s
Count of elements : 1114
Stream size : 27.5 KiB (0%)
Title : SDH
Language : English
Default : No
Forced : No

Menu
00:29:03.000 : en:Credits



Download torrent
1 GB
seeders:808
leechers:62
Last.Week.Tonight.with.John.Oliver.S07E23.August.30.2020.720p.HMAX.WEBRip.DD2.0.x264-monkee


Trackers

tracker name
http://tracker.trackerfix.com:80/announce
udp://9.rarbg.me:2930/announce
udp://9.rarbg.to:2800/announce
µTorrent compatible trackers list

Download torrent
1 GB
seeders:808
leechers:62
Last.Week.Tonight.with.John.Oliver.S07E23.August.30.2020.720p.HMAX.WEBRip.DD2.0.x264-monkee


Torrent hash: F14793152B1036396F9D09EB9148A8C69215EEEF