Lovecraft.Country.S01E03.Holy.Ghost.720p.AMZN.WEBRip.DDP5.1.x264-NTb

seeders: 684
leechers: 160
updated:
Added by prudence25 in TV > HD

Download Fast Safe Anonymous
movies, software, shows...

Files

Lovecraft.Country.S01E03.Holy.Ghost.720p.AMZN.WEBRip.DDP5.1.x264-NTb[rarbg]
  • Lovecraft.Country.S01E03.Holy.Ghost.720p.AMZN.WEB-DL.DDP5.1.H.264-NTb.mkv (1.4 GB)
  • RARBG.txt (0.0 KB)
  • RARBG_DO_NOT_MIRROR.exe (0.1 KB)

Description

Video
ID : 1
Format : AVC
Format/Info : Advanced Video Codec
Format profile : [email protected]
Format settings : CABAC / 4 Ref Frames
Format settings, CABAC : Yes
Format settings, Reference frames : 4 frames
Codec ID : V_MPEG4/ISO/AVC
Duration : 1 h 0 min
Bit rate mode : Constant
Bit rate : 2 702 kb/s
Nominal bit rate : 6 000 kb/s
Width : 1 280 pixels
Height : 720 pixels
Display aspect ratio : 16:9
Frame rate mode : Constant
Frame rate : 23.976 (24000/1001) FPS
Color space : YUV
Chroma subsampling : 4:2:0
Bit depth : 8 bits
Scan type : Progressive
Bits/(Pixel*Frame) : 0.122
Stream size : 1.13 GiB (81%)
Default : Yes
Forced : No
Color range : Limited
Color primaries : BT.709
Transfer characteristics : BT.709
Matrix coefficients : BT.709

Audio
ID : 2
Format : E-AC-3
Format/Info : Enhanced AC-3
Commercial name : Dolby Digital Plus
Codec ID : A_EAC3
Duration : 1 h 0 min
Bit rate mode : Constant
Bit rate : 640 kb/s
Channel(s) : 6 channels
Channel layout : L R C LFE Ls Rs
Sampling rate : 48.0 kHz
Frame rate : 31.250 FPS (1536 SPF)
Compression mode : Lossy
Stream size : 275 MiB (19%)
Language : English
Service kind : Complete Main
Default : Yes
Forced : No

Text
ID : 3
Format : UTF-8
Codec ID : S_TEXT/UTF8
Codec ID/Info : UTF-8 Plain Text
Duration : 59 min 37 s
Bit rate : 64 b/s
Count of elements : 1160
Stream size : 28.0 KiB (0%)
Title : SDH
Language : English
Default : No
Forced : No



Download torrent
1.4 GB
seeders:684
leechers:160
Lovecraft.Country.S01E03.Holy.Ghost.720p.AMZN.WEBRip.DDP5.1.x264-NTb


Trackers

tracker name
http://tracker.trackerfix.com:80/announce
udp://9.rarbg.me:2750/announce
udp://9.rarbg.to:2780/announce
µTorrent compatible trackers list

Download torrent
1.4 GB
seeders:684
leechers:160
Lovecraft.Country.S01E03.Holy.Ghost.720p.AMZN.WEBRip.DDP5.1.x264-NTb


Torrent hash: 9E2DA214081B4B278EA23211A7FDBFBB4EF09F37