Tenet.2020.HC.HDCam.XviD.B4ND1T69

seeders: 1121
leechers: 1441
updated:
Added by B4ND1T69 in Movies > Divx/Xvid

Download Fast Safe Anonymous
movies, software, shows...
Summary:

Armed with only one word - Tenet - and fighting for the survival of the entire world, the Protagonist journeys through a twilight world of international espionage on a mission that will unfold in something beyond real time.

Files

Tenet.2020.HC.HDCam.XviD.B4ND1T69
  • 1337x text file.txt (0.1 KB)
  • Downloaded from katcr.co.txt (0.1 KB)
  • Sample-1.avi (8.1 MB)
  • Sample-2.avi (20.3 MB)
  • Sample-3.avi (21.7 MB)
  • Tenet.2020.HC.HDCam.XviD.B4ND1T69.avi (1.7 GB)

Description

Tenet.2020.HC.HDCam.XviD.B4ND1T69



Director: Christopher Nolan
Writer: Christopher Nolan
Stars: John David Washington, Robert Pattinson, Elizabeth Debicki

Plot/Story:
Armed with only one word, Tenet, and fighting for the survival of the entire world, a Protagonist journeys through a twilight world of international espionage on a mission that will unfold in something beyond real time.

Notes:
Clean print, No ads, watermarks or floaty shit...just the movie.
Took the clean print that's out, reset the AR (previous release was cropped at side and bottom), reduced flicker and noise, re-balanced colours, brightness, contrast, blurred out the one site logo in bottom right of screen, sharpened image throughout, 3 samples included..enjoy.

General
Complete name               : Tenet.2020.HC.HDCam.XviD.B4ND1T69.avi
Format                      : AVI
Format/Info                 : Audio Video Interleave
File size                   : 1.70 GiB
Duration                    : 2 h 24 min
Overall bit rate            : 1 684 kb/s
Subtitles                   : Hardcoded Korean at times.
Samples                     : Yes...(3)

Video
ID                          : 0
Format                      : MPEG-4 Visual
Format profile              : Advanced [email protected]
Format settings, BVOP       : 2
Format settings, QPel       : No
Format settings, GMC        : No warppoints
Format settings, Matrix     : Default (H.263)
Codec ID                    : XVID
Codec ID/Hint               : XviD
Duration                    : 2 h 24 min
Bit rate                    : 1 542 kb/s
Width                       : 720 pixels
Height                      : 256 pixels
Display aspect ratio        : 2.813
Frame rate                  : 29.970 (30000/1001) FPS
Color space                 : YUV
Chroma subsampling          : 4:2:0
Bit depth                   : 8 bits
Scan type                   : Progressive
Compression mode            : Lossy
Bits/(Pixel*Frame)          : 0.279
Stream size                 : 1.55 GiB (92%)
Writing library             : XviD 64

Audio
ID                          : 1
Format                      : MPEG Audio
Format version              : Version 1
Format profile              : Layer 3
Codec ID                    : 55
Codec ID/Hint               : MP3
Duration                    : 2 h 24 min
Bit rate mode               : Constant
Bit rate                    : 128 kb/s
Channel(s)                  : 2 channels
Sampling rate               : 48.0 kHz
Compression mode            : Lossy
Stream size                 : 132 MiB (8%)
Alignment                   : Aligned on interleaves
Interleave, duration        : 24  ms (0.72 video frame)

Screenshots:










Please Seed For As Long As Possible
Or At Least 1:1 Ratio...Thanks
Enjoy Peeps


Related Torrents

torrent name size uploader age seed leech
4.2 GB BBTOR 21
days
720 751
893.9 MB BBTOR 27
days
507 91
2.6 GB Silmarillion 26
days
456 568
1.4 GB LifeLongg 26
days
217 81
1.1 GB LifeLongg 25
days
58 44


Download torrent
1.7 GB
seeders:1121
leechers:1441
Tenet.2020.HC.HDCam.XviD.B4ND1T69


Trackers

tracker name
udp://tracker.coppersurfer.tk:6969/announce
udp://tracker.leechers-paradise.org:6969/announce
udp://9.rarbg.to:2910/announce
udp://tracker.opentrackr.org:1337/announce
udp://open.stealth.si:80/announce
udp://exodus.desync.com:6969/announce
udp://tracker.uw0.xyz:6969/announce
udp://tracker.tiny-vps.com:6969/announce
µTorrent compatible trackers list

Download torrent
1.7 GB
seeders:1121
leechers:1441
Tenet.2020.HC.HDCam.XviD.B4ND1T69


Torrent hash: FBB50FFEA12F94B2EEC152093881394A7E46BAF4